Skip to main content

This item appears to not have any files that we can let you "experience" (like watching a video or viewing images) in this area.

We suggest you try the [DOWNLOAD OPTIONS] area to the right below to see if there are any files you would like to try to use or download.

David_Bowie_Glen_Helen_Regional_Park_May_5__1983_soundboard




shntool 3.0.4
Copyright (C) 2000-2007 Jason Jordan

length expanded size cdr WAVE problems fmt ratio filename
0:39.69 7041068 B -b- -- ---xx flac 0.5229 Track 01.flac
0:38.12 6731820 B -b- -- ---xx flac 0.5329 Track 02.flac
2:32.07 26828844 B -b- -- ---xx flac 0.5552 Track 03.flac
4:59.53 52869164 B -b- -- ---xx flac 0.5549 Track 04.flac
3:46.31 39940140 B -b- -- ---xx flac 0.5553 Track 05.flac
3:33.70 37738540 B -b- -- ---xx flac 0.5468 Track 06.flac
2:46.31 29356076 B -b- -- ---xx flac 0.5494 Track 07.flac
4:53.51 51806252 B -b- -- ---xx flac 0.5567 Track 08.flac
2:55.45 30976044 B -b- -- ---xx flac 0.5562 Track 09.flac
4:02.50 42805292 B -b- -- ---xx flac 0.5567 Track 10.flac
2:54.22 30744620 B -b- -- ---xx flac 0.5514 Track 11.flac
4:25.37 46833708 B -b- -- ---xx flac 0.5636 Track 12.flac
5:20.51 56567852 B -b- -- ---xx flac 0.5545 Track 13.flac
3:42.20 39209004 B -b- -- ---xx flac 0.5742 Track 14.flac
2:20.22 24748076 B -b- -- ---xx flac 0.5740 Track 15.flac
4:50.37 51243052 B -b- -- ---xx flac 0.5794 Track 16.flac
8:51.25 93726764 B -b- -- ---xx flac 0.5711 Track 17.flac
3:16.52 34697260 B -b- -- ---xx flac 0.5766 Track 18.flac
3:49.62 40542252 B -b- -- ---xx flac 0.5630 Track 19.flac
5:07.73 54327340 B -b- -- ---xx flac 0.5688 Track 20.flac
1:18.05 13770796 B -b- -- ---xx flac 0.5368 Track 21.flac
5:15.47 55676972 B -b- -- ---xx flac 0.5700 Track 22.flac
4:06.11 43419692 B -b- -- ---xx flac 0.5763 Track 23.flac
5:20.52 56569900 B -b- -- ---xx flac 0.5789 Track 24.flac
3:36.40 38197292 B -b- -- ---xx flac 0.5718 Track 25.flac
95:05.02 1006367820 B 0.5639 (25 files)


Reviews

There are no reviews yet. Be the first one to write a review.
PEOPLE ALSO FOUND
Source: https://www.youtube.com/watch?v=zmi9bkfVn_I&feature=youtube_gdata
Source: https://www.youtube.com/watch?v=Gr52xrIMiKk&feature=youtube_gdata
Maspero Video Collection
5
0
0
Occupy Wall Street YouTube Archive
by RyanLaneGreenwood
5
0
0
Source: https://www.youtube.com/watch?v=LPqfpma0Ic4&feature=youtube_gdata
Maspero Video Collection
7
0
0
Maspero Video Collection
8
0
0
Maspero Video Collection
3
0
0
Maspero Video Collection
4
0
0
Maspero Video Collection
9
0
0
Maspero Video Collection
7
0
0